Atish Chakraborty | Hunter X Hunter 290 | Schmucksteine 5x14mm (Sapphire-AB)

Incredibles 2 (2018) x 1600 (2160p) HDR 5.1 x265 10bit Phun Psyz

  • Category Movies
  • Type UHD
  • Language English
  • Total size 2.5 GB
  • Uploaded By PhunPsyz
  • Downloads 515
  • Last checked 59 minutes ago
  • Date uploaded 1 day ago
  • Seeders 71
  • Leechers 28

Infohash : B8222EEBAD095828494D2DA09055DEC978A1A60A

www.imdb.com/title/tt3606756/

Bob Parr (Mr. Incredible) is left to care for the kids while Helen (Elastigirl) is out saving the world.

Source: FGT 4K Remux







Format : Matroska
Format version : Version 4 / Version 2
File size : 2.47 GiB
Duration : 1 h 57 min
Overall bit rate : 3 003 kb/s

Video
ID : 1
Format : HEVC
Format/Info : High Efficiency Video Coding
Format profile : Main [email protected]@High
Codec ID : V_MPEGH/ISO/HEVC
Duration : 1 h 57 min
Bit rate : 2 623 kb/s
Width : 3 840 pixels
Height : 1 600 pixels
Display aspect ratio : 2.40:1
Frame rate mode : Constant
Frame rate : 23.976 (24000/1001) FPS
Color space : YUV
Chroma subsampling : 4:2:0
Bit depth : 10 bits
Bits/(Pixel*Frame) : 0.018
Stream size : 2.16 GiB (87%)
Writing library : x265 2.6:[Windows][GCC 7.1.0][64 bit] 10bit

Audio
ID : 2
Format : AC-3
Format/Info : Audio Coding 3
Commercial name : Dolby Digital
Codec ID : A_AC3
Duration : 1 h 57 min
Bit rate mode : Constant
Bit rate : 320 kb/s
Channel(s) : 6 channels
Channel layout : L R C LFE Ls Rs
Sampling rate : 48.0 kHz
Frame rate : 31.250 FPS (1536 SPF)
Bit depth : 16 bits
Compression mode : Lossy
Stream size : 270 MiB (11%)
Title : Surround
Language : English

Text
Language : English
Language : French
Language : Spanish
Default : No
Forced : No

Files:

  • Incredibles 2 (2018) x 1600 (2160p) HDR 5.1 x265 10bit Phun Psyz.mkv (2.5 GB)

Comments

Code:

  • udp://tracker.opentrackr.org:1337/announce
  • udp://public.popcorn-tracker.org:6969/announce
  • udp://tracker.leechers-paradise.org:6969/announce
  • udp://tracker.pirateparty.gr:6969/announce
  • udp://tracker.internetwarriors.net:1337/announce
  • udp://inferno.demonoid.pw:3391/announce
  • http://mgtracker.org:6969/announce
  • udp://tracker.coppersurfer.tk:6969/announce
  • udp://tracker.torrent.eu.org:451/announce
  • udp://tracker.tiny-vps.com:6969/announce
Sitemap